Skip to main content

Cracker Live at The Satellite on 2011-09-14

by Cracker



01. Low
02. Movie Star
03. Get Off This
04. Kerosene Hat
05. Take Me Down To The Infirmary
06. Nostalgia
07. Sweet Potato
08. Sick Of Goodbyes
09. I Want Everything
10. Lonesome Johnny Blues
11. Let's Go For A Ride
12. Loser
13. Eurotrash Girl
14. I Ride My Bike
15. encore break
16. Good Guys & Bad Guys
17. Take The Skinheads Bowling
18. The Man In Me
19. recordist's signout


Collection Cracker
Band/Artist Cracker
Date September 14, 2011
Venue The Satellite
Location Los Angeles, CA (Silverlake)

Source KM140's > MV100 > PCM-M10 (EMTEN) > WAV @2448
Lineage WAVs > DP4 > Audacity 1.3.13 (tracking, start & end fades) > xACT 2.13 > FLAC level 8
Taped by morst
Transferred by morst & digitalist0ne


Notes

*** 24-bit high definition audio - NOT for direct CD burning ***

P2910275-40p.jpg

Cracker
Thursday, September 14, 2011
Los Angeles, CA (Silverlake)
The Satellite

warmup show for the 7th Annual Cracker / Camper Van Beethoven Family Reunion Campout

The Calamity opened for CVB & Cracker
CVB performed their 1989 album Key Lime Pie
Cracker's main set was their 1993 album Kerosene Hat, both with David Immergluck sitting in
encore featured Jon Segel, Victor Krummenacher, David Immergluck, & Greg Lisher, but no Sal Maida

CVB set: http://www.archive.org/details/CVB2011-09-14

P2910277-40p.jpg


SHNTOOL:
length expanded size cdr WAVE problems fmt ratio filename
4:36.236 79556006 B cxx -- ---xx flac 0.7838 Cracker2011-09-14t01.flac
3:30.864 60728924 B cxx -- ---xx flac 0.7896 Cracker2011-09-14t02.flac
3:59.584 69000374 B cxx -- ---xx flac 0.7680 Cracker2011-09-14t03.flac
6:20.043 109452446 B cxx -- ---xx flac 0.6830 Cracker2011-09-14t04.flac
4:33.305 78712010 B cxx -- ---xx flac 0.7160 Cracker2011-09-14t05.flac
4:56.035 85258154 B cxx -- ---xx flac 0.7476 Cracker2011-09-14t06.flac
3:45.790 65027678 B cxx -- ---xx flac 0.7708 Cracker2011-09-14t07.flac
3:58.811 68777594 B cxx -- ---xx flac 0.7381 Cracker2011-09-14t08.flac
7:01.076 121269986 B cxx -- ---xx flac 0.7023 Cracker2011-09-14t09.flac
3:09.075 54453734 B cxx -- ---xx flac 0.7385 Cracker2011-09-14t10.flac
3:14.270 55949906 B cxx -- ---xx flac 0.7914 Cracker2011-09-14t11.flac
6:11.184 106901072 B cxx -- ---xx flac 0.7074 Cracker2011-09-14t12.flac
8:25.235 145507712 B cxx -- ---xx flac 0.7440 Cracker2011-09-14t13.flac
11:20.935 196109312 B cxx -- ---xx flac 0.7256 Cracker2011-09-14t14.flac
1:50.960 31956386 B cxx -- ---xx flac 0.7127 Cracker2011-09-14t15.flac
4:48.260 83018900 B cxx -- ---xx flac 0.7354 Cracker2011-09-14t16.flac
2:30.657 43389356 B cxx -- ---xx flac 0.7679 Cracker2011-09-14t17.flac
5:52.637 101559542 B cxx -- ---xx flac 0.7356 Cracker2011-09-14t18.flac
0:39.291 11315870 B cxx -- ---xx flac 0.6842 Cracker2011-09-14t19.flac
90:44.250 1567944962 B 0.7363 (19 files)

-~-~-~-~-~-~-~-~-~-~-~-~-~-~-~-~-~-~-~-~-~-~-~-~-~-
The Soundscape Preservation Society (Founded 1991)
http://www.iamtypingwithonefinger.com/SPS.html
-~-~-~-~-~-~-~-~-~-~-~-~-~-~-~-~-~-~-~-~-~-~-~-~-~-

Reviews

There are no reviews yet. Be the first one to write a review.
DOWNLOAD OPTIONS
In Collection
Cracker
In Collection
Live Music Archive
Uploaded by
morst
on 10/10/2011
Views
399
Favorites
3
PEOPLE ALSO FOUND
Cracker
by Cracker
396
0
1
( 1 reviews )
Source: Neumann KM140's > Shure FP24 > Sony PCM-M10 > WAV @24/48
Cracker
by Cracker
75
0
0
Source: audience DAT
Cracker
by Cracker
183
0
0
Source: SBD + Audience 4-channel post-production matrix mix
Cracker
by Cracker
1,231
0
1
( 1 reviews )
Source: Multichannel SBD+AUD
Cracker
by Cracker
168
0
0
Source: FOB DFC DPA(B&K)4011s->V2->Luminous Synchestra Signature XLRs->AD2K@ 24/48->722
Cracker
by Cracker
1,195
0
1
( 1 reviews )
Source: FM > cass > CD > FLAC
Cracker
by Cracker
202
0
0
Source: internal Mic > Panasonic RX-SR29 Tape Deck > (2) Maxell XLII 90
Cracker
314
0
0
Source: Neumann KM140's > Sonosax SX-M2 > Sony PCM-M10 > WAVs @48kHz/24bit + Soundcraft 800B SBD > Edirol R44 > WAVs @48kHz/24bit
Cracker
by Cracker
137
0
0
Source: Sony ECM Mic -> Sony HI-MD -> Sonic Stage -> wav
Cracker
by Cracker
330
0
0
Source: SBD > Sony PCM-M10 > WAV @24/48